<?xml version="1.0" standalone="no"?>
<!DOCTYPE svg PUBLIC "-//W3C//DTD SVG 1.1//EN" "http://www.w3.org/Graphics/SVG/1.1/DTD/svg11.dtd">
<svg xmlns="http://www.w3.org/2000/svg">
<defs >
<font id="Arimo" horiz-adv-x="1190" ><font-face
    font-family="Arimo"
    units-per-em="2048"
    panose-1="2 11 6 4 2 2 2 2 2 4"
    ascent="1854"
    descent="-434"
    alphabetic="0" />
<glyph unicode=" " horiz-adv-x="569" />
<glyph unicode="!" horiz-adv-x="569" d="M383 1409L359 397H211L187 1409H383ZM379 201V0H185V201H379Z" />
<glyph unicode="&quot;" horiz-adv-x="727" d="M640 1409L618 966H476L456 1409H640ZM271 1409L249 966H108L87 1409H271Z" />
<glyph unicode="#" horiz-adv-x="1139" d="M320 408L236 0H126L210 408H9V516H234L312 885H60V993H334L423 1401H533L445 993H808L896 1401H1006L918 993H1129V885H896L818 516H1078V408H795L707 0H597L683 408H320ZM345 516H707L785 885H425L345 516Z" />
<glyph unicode="$" horiz-adv-x="1139" d="M518 20Q305 29 181 119T22 379L192 416Q217 297 296 237T518 168V664Q459 679 413 692T332 719T274 743Q173 796 130 866T86 1046Q86 1201 198 1288T518 1385V1516H642V1385Q767 1379 853 1344T993 1241T1075 1065L901
1032Q881 1126 820 1178T642 1242V797Q731 776 795 757T897 720Q1011 667 1058 592T1106 396Q1106 231 985 131T642 20V-142H518V20ZM258 1048Q258 988 283 948Q308 907 357 879T518 823V1244Q258 1230 258 1048ZM934 394Q934 459 908 501T833 571Q784 598 642
635V167Q783 176 858 234T934 394Z" />
<glyph unicode="%" horiz-adv-x="1821" d="M394 1421Q707 1421 707 975Q707 758 628 641T390 524Q232 524 153 640T73 975Q73 1198 150 1309T394 1421ZM1451 1409L527 0H372L1294 1409H1451ZM560 975Q560 1151 522 1232T394 1313Q300 1313 260 1234T220 975Q220
802 260 720T392 637Q479 637 519 721T560 975ZM1748 434Q1748 219 1667 104T1428 -12Q1272 -12 1193 100T1113 434Q1113 662 1189 773T1432 885Q1596 885 1672 771T1748 434ZM1600 434Q1600 613 1562 693T1432 774Q1341 774 1301 695T1260 434Q1260 263 1299 181T1430
98Q1518 98 1559 181T1600 434Z" />
<glyph unicode="&amp;" horiz-adv-x="1366" d="M72 371Q72 510 157 617T415 800Q382 862 358 947T334 1102Q334 1252 425 1334T685 1417Q836 1417 928 1341T1021 1133Q1021 1063 990 1003T887 886Q838 849 771 813T612 741Q721 538 905 329Q1018 496 1076 739L1221
696Q1159 449 1009 227Q1105 129 1217 129Q1289 129 1334 145V10Q1280 -12 1193 -12Q1105 -12 1031 19T895 115Q740 -20 523 -20Q308 -20 190 83T72 371ZM869 1133Q869 1205 819 1250T683 1296Q587 1296 537 1245T487 1102Q487 990 552 858Q683 911 745 950Q807
989 838 1034T869 1133ZM795 217Q696 334 617 448T476 674Q240 573 240 373Q240 252 317 182T529 111Q600 111 671 138T795 217Z" />
<glyph unicode="&apos;" horiz-adv-x="391" d="M288 1409L266 966H125L104 1409H288Z" />
<glyph unicode="(" horiz-adv-x="682" d="M496 -424Q370 -288 288 -141T167 171T127 528Q127 723 167 889T289 1202T496 1484H670Q483 1276 396 1042T308 530Q308 346 346 181T464 -133T670 -424H496Z" />
<glyph unicode=")" horiz-adv-x="682" d="M12 -424Q138 -284 218 -135T336 179T374 530Q374 809 287 1042T12 1484H186Q312 1348 393 1201T515 889T555 532Q555 338 515 172T394 -141T186 -424H12Z" />
<glyph unicode="*" horiz-adv-x="797" d="M668 762L549 690L399 948L243 692L124 764L313 1012L33 1085L78 1219L345 1112L333 1409H469L456 1114L720 1217L765 1085L483 1012L668 762Z" />
<glyph unicode="+" horiz-adv-x="1196" d="M671 608V180H524V608H100V754H524V1182H671V754H1095V608H671Z" />
<glyph unicode="," horiz-adv-x="569" d="M385 51Q385 -55 366 -126T307 -262H184Q231 -194 254 -129T278 0H190V219H385V51Z" />
<glyph unicode="-" horiz-adv-x="682" d="M591 624V464H91V624H591Z" />
<glyph unicode="." horiz-adv-x="569" d="M382 219V0H187V219H382Z" />
<glyph unicode="/" horiz-adv-x="569" d="M569 1484L162 -20H0L411 1484H569Z" />
<glyph unicode="0" horiz-adv-x="1139" d="M1059 705Q1059 352 935 166T567 -20Q324 -20 202 165T80 705Q80 1068 198 1249T573 1430Q822 1430 940 1247T1059 705ZM876 705Q876 909 846 1036T748 1224T573 1284Q463 1284 394 1225T294 1039T262 705Q262 505 294
377T395 188T569 127Q728 127 802 269T876 705Z" />
<glyph unicode="1" horiz-adv-x="1139" d="M1039 153V0H156V153H515V1237L197 1010V1180L530 1409H696V153H1039Z" />
<glyph unicode="2" horiz-adv-x="1139" d="M1036 153V0H103V127Q154 244 226 334T381 496T543 630Q583 661 618 692T686 754Q750 816 789 884T829 1038Q829 1154 761 1218T572 1282Q457 1282 383 1220T295 1044L111 1061Q131 1230 254 1330T572 1430Q785 1430
899 1330T1014 1044Q1014 962 977 881T865 719Q828 679 757 616T582 468Q467 374 399 299T301 153H1036Z" />
<glyph unicode="3" horiz-adv-x="1139" d="M1049 389Q1049 194 925 87T571 -20Q357 -20 230 76T78 362L264 379Q300 129 571 129Q707 129 784 196T862 395Q862 510 774 574T518 639H416V795H514Q662 795 743 859T825 1038Q825 1151 759 1216T561 1282Q442 1282
369 1221T283 1049L102 1063Q122 1236 245 1333T563 1430Q775 1430 892 1332T1010 1057Q1010 922 935 838T715 723V719Q873 702 961 613T1049 389Z" />
<glyph unicode="4" horiz-adv-x="1139" d="M881 319V0H711V319H47V459L692 1409H881V461H1079V319H881ZM213 461H711V1023Q711 1069 711 1114T715 1206Q692 1162 675 1135T644 1087L213 461Z" />
<glyph unicode="5" horiz-adv-x="1139" d="M1053 459Q1053 236 921 108T553 -20Q356 -20 235 66T82 315L264 336Q293 232 366 180T557 127Q702 127 784 214T866 455Q866 588 784 670T561 752Q488 752 425 729T299 651H123L170 1409H971V1256H334L307 809Q424 899
598 899Q737 899 839 844T997 689T1053 459Z" />
<glyph unicode="6" horiz-adv-x="1139" d="M1049 461Q1049 238 928 109T594 -20Q356 -20 230 157T104 672Q104 1038 235 1234T608 1430Q768 1430 868 1358T1010 1143L838 1112Q786 1284 606 1284Q452 1284 368 1141T283 725Q332 816 421 863T625 911Q820 911 934
789T1049 461ZM866 453Q866 606 791 689T582 772Q456 772 379 699T301 496Q301 388 338 304T439 173T588 125Q718 125 792 212T866 453Z" />
<glyph unicode="7" horiz-adv-x="1139" d="M1036 1263Q928 1098 852 969T731 746Q642 559 598 377T553 0H365Q365 140 394 284T487 588Q547 737 639 902T862 1256H105V1409H1036V1263Z" />
<glyph unicode="8" horiz-adv-x="1139" d="M1050 393Q1050 198 926 89T570 -20Q344 -20 217 87T89 391Q89 529 168 623T370 737V741Q255 768 189 858T122 1069Q122 1230 242 1330T566 1430Q774 1430 894 1332T1015 1067Q1015 946 948 856T765 743V739Q900 717
975 625T1050 393ZM828 1057Q828 1296 566 1296Q306 1296 306 1057Q306 936 374 873T568 809Q695 809 761 867T828 1057ZM863 410Q863 541 785 607T566 674Q429 674 352 603T275 406Q275 261 349 188T572 115Q719 115 791 185T863 410Z" />
<glyph unicode="9" horiz-adv-x="1139" d="M1042 733Q1042 370 910 175T532 -20Q367 -20 268 49T125 274L297 301Q351 125 535 125Q690 125 775 269T864 680Q824 590 727 536T514 481Q388 481 294 540T148 706T96 956Q96 1177 220 1303T565 1430Q800 1430 921
1256T1042 733ZM846 907Q846 1077 768 1180T559 1284Q429 1284 354 1196T279 956Q279 802 354 713T557 623Q635 623 700 659T806 759T846 907Z" />
<glyph unicode=":" horiz-adv-x="569" d="M382 1082V875H187V1082H382ZM382 207V0H187V207H382Z" />
<glyph unicode=";" horiz-adv-x="569" d="M385 1082V875H190V1082H385ZM385 51Q385 -55 366 -126T307 -262H184Q231 -194 254 -129T278 0H190V207H385V51Z" />
<glyph unicode="&lt;" horiz-adv-x="1196" d="M1096 307V154L101 571V776L1096 1194V1040L238 674L1096 307Z" />
<glyph unicode="=" horiz-adv-x="1196" d="M1095 1004V856H100V1004H1095ZM1095 492V344H100V492H1095Z" />
<glyph unicode="&gt;" horiz-adv-x="1196" d="M1096 571L101 154V307L959 674L101 1040V1194L1096 776V571Z" />
<glyph unicode="?" horiz-adv-x="1139" d="M1063 1032Q1063 919 1015 840T844 671L764 612Q622 510 621 377H446Q449 469 481 532T564 639T667 722Q724 763 773 803T851 895T881 1024Q881 1138 804 1204T586 1270Q446 1270 364 1200T268 1008L84 1020Q110 1218
240 1324T584 1430Q807 1430 935 1325T1063 1032ZM633 201V0H438V201H633Z" />
<glyph unicode="@" horiz-adv-x="2079" d="M1902 755Q1902 569 1845 419Q1787 268 1685 186T1455 104Q1356 104 1302 148T1248 280Q1249 297 1249 315T1251 350H1245Q1179 227 1082 166T871 104Q714 104 628 206T541 489Q541 652 606 794Q671 935 786 1018T1043
1101Q1261 1101 1344 919H1350L1389 1079H1545L1429 573Q1392 412 1392 320Q1392 273 1412 250T1473 226Q1554 226 1621 295Q1689 364 1727 485T1766 753Q1766 931 1689 1071Q1612 1209 1467 1283T1128 1358Q887 1358 700 1251Q514 1144 408 943T302 491Q302 297
381 151Q459 3 607 -76T954 -155Q1099 -155 1248 -118T1557 7L1612 -105Q1467 -192 1298 -237T954 -283Q713 -283 533 -187Q352 -92 257 84T161 491Q161 770 286 1000Q411 1229 631 1356T1126 1484Q1367 1484 1542 1394Q1717 1303 1809 1138T1902 755ZM1296 747Q1296
849 1230 911T1054 974Q953 974 874 910Q796 847 751 735T706 491Q706 371 753 303T900 235Q978 235 1049 278T1176 394Q1215 446 1241 513T1282 643T1296 747Z" />
<glyph unicode="A" horiz-adv-x="1366" d="M364 412L202 0H4L579 1409H796L1362 0H1167L1006 412H364ZM685 1265Q668 1209 645 1141T601 1020L422 561H949L768 1026Q754 1061 731 1125T685 1265Z" />
<glyph unicode="B" horiz-adv-x="1366" d="M1258 397Q1258 209 1121 105T740 0H168V1409H680Q928 1409 1052 1324T1176 1067Q1176 942 1106 857T908 743Q1076 723 1167 631T1258 397ZM984 1044Q984 1158 906 1207T680 1256H359V810H680Q833 810 908 867T984 1044ZM1065
412Q1065 661 715 661H359V153H730Q905 153 985 218T1065 412Z" />
<glyph unicode="C" horiz-adv-x="1479" d="M800 137Q1096 137 1245 430L1401 352Q1314 170 1157 75T791 -20Q577 -20 423 69T187 322T104 711Q104 936 186 1097T422 1344T790 1430Q1015 1430 1166 1342T1388 1081L1207 1021Q1158 1144 1050 1209T792 1274Q558
1274 428 1124T298 711Q298 539 359 410T533 209T800 137Z" />
<glyph unicode="D" horiz-adv-x="1479" d="M1381 719Q1381 496 1295 335T1054 87T695 0H168V1409H634Q992 1409 1186 1230T1381 719ZM1189 719Q1189 981 1046 1118T630 1256H359V153H673Q830 153 945 222T1125 418T1189 719Z" />
<glyph unicode="E" horiz-adv-x="1366" d="M1278 156V0H168V1409H1237V1253H359V801H1177V647H359V156H1278Z" />
<glyph unicode="F" horiz-adv-x="1251" d="M359 571V0H168V1409H1169V1253H359V729H1145V571H359Z" />
<glyph unicode="G" horiz-adv-x="1593" d="M813 135Q951 135 1070 177T1264 291V545H843V705H1440V219Q1328 105 1166 43T813 -20Q593 -20 434 69T189 322T103 711Q103 1054 287 1242T804 1430Q1038 1430 1184 1351T1409 1098L1227 1044Q1167 1164 1062 1219T799
1274Q555 1274 426 1127T297 711Q297 444 434 290T813 135Z" />
<glyph unicode="H" horiz-adv-x="1479" d="M359 653V0H168V1409H359V813H1121V1409H1312V0H1121V653H359Z" />
<glyph unicode="I" horiz-adv-x="569" d="M380 1409V0H189V1409H380Z" />
<glyph unicode="J" horiz-adv-x="1024" d="M457 -20Q278 -20 172 72T32 350L219 381Q237 265 300 200T458 135Q562 135 622 206T682 416V1253H411V1409H872V420Q872 215 761 98T457 -20Z" />
<glyph unicode="K" horiz-adv-x="1366" d="M359 540V0H168V1409H359V703L1038 1409H1263L663 797L1343 0H1106L543 680L359 540Z" />
<glyph unicode="L" horiz-adv-x="1139" d="M1071 156V0H168V1409H359V156H1071Z" />
<glyph unicode="M" horiz-adv-x="1706" d="M338 940V0H168V1409H419L794 432Q814 373 832 306T857 208Q863 235 877 282T905 374T925 432L1293 1409H1538V0H1366V940Q1366 1018 1368 1093T1375 1240Q1350 1151 1329 1081T1287 960L923 0H789L420 960L331 1240Q333
1165 335 1090T338 940Z" />
<glyph unicode="N" horiz-adv-x="1479" d="M338 936V0H168V1409H390L1152 201Q1140 398 1140 485V1409H1312V0H1082L328 1200Q330 1134 334 1068T338 936Z" />
<glyph unicode="O" horiz-adv-x="1593" d="M1495 711Q1495 485 1410 321T1167 69T795 -20Q579 -20 423 68T182 320T97 711Q97 937 180 1097T420 1344T797 1430Q1013 1430 1169 1345T1410 1100T1495 711ZM1300 711Q1300 974 1169 1124T797 1274Q555 1274 423 1126T291
711Q291 535 351 406T524 206T795 135Q1039 135 1169 285T1300 711Z" />
<glyph unicode="P" horiz-adv-x="1366" d="M1258 985Q1258 852 1199 754T1032 603T773 549H359V0H168V1409H761Q998 1409 1128 1298T1258 985ZM1066 983Q1066 1256 738 1256H359V700H746Q906 700 986 770T1066 983Z" />
<glyph unicode="Q" horiz-adv-x="1593" d="M1495 711Q1495 513 1428 360T1233 113T928 -6Q969 -132 1035 -188T1204 -244Q1261 -244 1319 -231V-365Q1228 -387 1141 -387Q990 -387 893 -302T733 -16Q531 -6 389 86T172 338T97 711Q97 937 180 1097T420 1344T797
1430Q1019 1430 1175 1343T1413 1094T1495 711ZM1300 711Q1300 974 1169 1124T797 1274Q555 1274 423 1126T291 711Q291 535 351 406T524 206T795 135Q1039 135 1169 285T1300 711Z" />
<glyph unicode="R" horiz-adv-x="1479" d="M359 585V0H168V1409H831Q1069 1409 1198 1303T1328 1006Q1328 849 1237 742T984 607L1384 0H1164L798 585H359ZM1136 1004Q1136 1127 1053 1191T812 1256H359V736H820Q971 736 1053 806T1136 1004Z" />
<glyph unicode="S" horiz-adv-x="1366" d="M1272 389Q1272 194 1120 87T690 -20Q175 -20 93 338L278 375Q310 248 414 189T697 129Q882 129 982 192T1083 379Q1083 448 1052 491T963 562Q906 590 827 609T652 650Q541 675 467 699T344 749T262 806Q212 852 186
913T159 1053Q159 1234 297 1332T694 1430Q934 1430 1061 1357T1239 1106L1051 1073Q1020 1185 933 1235T692 1286Q523 1286 434 1230T345 1063Q345 998 379 956T479 884Q540 855 738 811Q819 792 898 772T1047 720Q1088 703 1125 679T1191 622Q1229 580 1250 523T1272
389Z" />
<glyph unicode="T" horiz-adv-x="1251" d="M720 1253V0H530V1253H46V1409H1204V1253H720Z" />
<glyph unicode="U" horiz-adv-x="1479" d="M731 -20Q558 -20 429 44T229 227T158 512V1409H349V528Q349 335 447 235T730 135Q920 135 1025 238T1131 541V1409H1321V530Q1321 359 1249 236T1044 47T731 -20Z" />
<glyph unicode="V" horiz-adv-x="1366" d="M1357 1409L782 0H584L9 1409H210L600 417Q624 356 643 293T684 168Q704 230 726 298T768 417L1156 1409H1357Z" />
<glyph unicode="W" horiz-adv-x="1933" d="M897 890L652 0H424L9 1409H208L461 514Q484 430 504 344T544 168Q552 205 565 265T594 389T621 495L877 1409H1060L1305 532Q1333 425 1355 334T1393 168Q1408 227 1424 295T1455 420T1476 501L1727 1409H1926L1511
0H1283L1039 895Q1027 937 1010 1012T969 1196Q960 1143 946 1082T918 968T897 890Z" />
<glyph unicode="X" horiz-adv-x="1366" d="M689 616L257 0H46L582 732L87 1409H298L690 856L1071 1409H1282L800 739L1323 0H1112L689 616Z" />
<glyph unicode="Y" horiz-adv-x="1366" d="M777 584V0H587V584L45 1409H255L684 738L1111 1409H1321L777 584Z" />
<glyph unicode="Z" horiz-adv-x="1251" d="M1187 156V0H65V143L923 1253H138V1409H1140V1270L282 156H1187Z" />
<glyph unicode="[" horiz-adv-x="569" d="M553 -296V-425H146V1484H553V1355H320V-296H553Z" />
<glyph unicode="\" horiz-adv-x="569" d="M158 1484L569 -20H407L0 1484H158Z" />
<glyph unicode="]" horiz-adv-x="569" d="M423 1484V-425H16V-296H249V1355H16V1484H423Z" />
<glyph unicode="^" horiz-adv-x="961" d="M10 673L378 1409H581L951 673H787L478 1306L172 673H10Z" />
<glyph unicode="_" horiz-adv-x="1139" d="M1162 -277V-407H-31V-277H1162Z" />
<glyph unicode="`" horiz-adv-x="682" d="M530 1221V1201H436L106 1479V1508H313L530 1221Z" />
<glyph unicode="a" horiz-adv-x="1139" d="M414 -20Q251 -20 169 66T87 302Q87 470 197 560T554 656L797 660V719Q797 851 741 908T565 965Q444 965 389 924T323 793L135 810Q181 1102 569 1102Q773 1102 876 1009T979 738V272Q979 192 1000 152T1080 111Q1108
111 1139 118V6Q1105 -2 1070 -6T1000 -10Q900 -10 855 42T803 207H797Q728 83 637 32T414 -20ZM797 534L600 530Q474 529 408 504Q342 480 307 430T272 299Q272 211 319 163T455 115Q555 115 631 160Q708 205 752 283T797 445V534Z" />
<glyph unicode="b" horiz-adv-x="1139" d="M1053 546Q1053 263 954 122T655 -20Q532 -20 451 24T318 168H316Q316 148 314 110T310 40T306 0H132Q135 27 136 82T138 223V1484H318V1061Q318 1029 317 991T314 908H318Q368 1012 450 1057T655 1102Q860 1102 956
964T1053 546ZM864 540Q864 767 804 865T609 963Q457 963 388 859T318 529Q318 316 386 215T607 113Q743 113 803 213T864 540Z" />
<glyph unicode="c" horiz-adv-x="1024" d="M553 -20Q326 -20 207 123T87 542Q87 815 207 958T551 1102Q717 1102 826 1016T964 779L779 765Q765 855 708 908T546 961Q403 961 339 866T275 546Q275 330 343 226T548 122Q644 122 708 174T788 334L970 322Q956 218
901 141T757 22T553 -20Z" />
<glyph unicode="d" horiz-adv-x="1139" d="M835 0Q833 11 831 41T827 109T825 174H821Q771 70 689 25T484 -20Q279 -20 183 118T86 536Q86 819 185 960T484 1102Q607 1102 689 1057T821 914H823L821 1035V1484H1001V223Q1001 138 1002 83T1007 0H835ZM275 542Q275
315 335 217T530 119Q683 119 752 225T821 554Q821 769 752 869T532 969Q396 969 336 869T275 542Z" />
<glyph unicode="e" horiz-adv-x="1139" d="M276 503Q276 317 353 216T578 115Q695 115 765 162T861 281L1019 236Q922 -20 578 -20Q338 -20 213 123T87 548Q87 816 212 959T571 1102Q810 1102 929 958T1048 527V503H276ZM862 641Q847 812 775 890T568 969Q437
969 361 882T278 641H862Z" />
<glyph unicode="f" horiz-adv-x="569" d="M361 951V0H181V951H29V1082H181V1204Q181 1352 246 1417T445 1482Q520 1482 572 1470V1333Q524 1341 492 1341Q423 1341 392 1306T361 1179V1082H572V951H361Z" />
<glyph unicode="g" horiz-adv-x="1139" d="M548 -425Q371 -425 266 -356T131 -158L312 -132Q330 -207 391 -247T553 -288Q687 -288 754 -209T822 27V201H820Q769 97 680 45T472 -8Q273 -8 180 124T86 539Q86 826 186 962T492 1099Q607 1099 691 1047T822 897H824Q824
917 826 959T831 1040T836 1082H1007Q1001 1028 1001 858V31Q1001 -197 888 -311T548 -425ZM822 541Q822 738 742 851T536 965Q398 965 335 865T272 541Q272 319 331 222T533 125Q661 125 741 236T822 541Z" />
<glyph unicode="h" horiz-adv-x="1139" d="M317 897Q375 1003 456 1052T663 1102Q839 1102 922 1011T1006 721V0H825V686Q825 833 774 898T602 963Q475 963 399 875T322 638V0H142V1484H322V1098Q322 1058 320 1014T317 937T314 897H317Z" />
<glyph unicode="i" horiz-adv-x="455" d="M317 1484V1312H137V1484H317ZM317 1082V0H137V1082H317Z" />
<glyph unicode="j" horiz-adv-x="455" d="M317 1484V1312H137V1484H317ZM77 -425Q-1 -425 -50 -416V-277Q-34 -279 -19 -281T12 -283Q81 -283 109 -247T137 -107V1082H317V-134Q317 -287 257 -356T77 -425Z" />
<glyph unicode="k" horiz-adv-x="1024" d="M318 385V0H138V1484H318V557L793 1082H1004L565 617L1027 0H816L450 494L318 385Z" />
<glyph unicode="l" horiz-adv-x="455" d="M318 1484V0H138V1484H318Z" />
<glyph unicode="m" horiz-adv-x="1706" d="M321 627V0H142V851Q142 946 141 1003T136 1082H306Q308 1060 310 1028T313 962T314 897H317Q375 1012 450 1057T633 1102Q756 1102 827 1053T927 897H930Q986 1006 1065 1054T1258 1102Q1422 1102 1496 1013T1571 721V0H1393V686Q1393
843 1350 903T1195 963Q1077 963 1012 876T946 627V0H768V686Q768 843 725 903T570 963Q455 963 388 875T321 627Z" />
<glyph unicode="n" horiz-adv-x="1139" d="M322 627V0H142V851Q142 946 141 1003T136 1082H306Q308 1063 309 1034T312 970T314 897H317Q379 1009 460 1055T663 1102Q841 1102 923 1011T1006 721V0H825V686Q825 841 775 902T602 963Q472 963 397 874T322 627Z" />
<glyph unicode="o" horiz-adv-x="1139" d="M1053 542Q1053 258 928 119T565 -20Q328 -20 207 124T86 542Q86 822 207 962T571 1102Q819 1102 936 966T1053 542ZM864 542Q864 766 798 867T574 969Q416 969 346 866T275 542Q275 328 344 221T563 113Q725 113 794
217T864 542Z" />
<glyph unicode="p" horiz-adv-x="1139" d="M1053 546Q1053 263 954 122T655 -20Q405 -20 319 168H314Q318 161 318 -2V-425H138V861Q138 944 137 999T132 1082H306Q307 1078 309 1043T314 968T316 908H320Q368 1008 447 1054T655 1101Q855 1101 954 967T1053 546ZM864
542Q864 768 803 865T609 962Q461 962 390 860T318 528Q318 315 386 214T607 113Q741 113 802 211T864 542Z" />
<glyph unicode="q" horiz-adv-x="1139" d="M86 536Q86 819 185 960T484 1102Q607 1102 688 1059T823 914Q823 934 825 976T830 1056T835 1096H1008Q1004 1067 1003 993T1001 801V-425H821V14L825 178H823Q769 71 690 26T484 -20Q278 -20 182 119T86 536ZM821 554Q821
765 752 867T532 969Q395 969 335 867T275 542Q275 315 335 217T530 119Q683 119 752 228T821 554Z" />
<glyph unicode="r" horiz-adv-x="682" d="M322 564V0H142V830Q142 887 141 950T136 1082H306Q308 1036 309 999T312 935T313 889T314 861H318Q348 959 384 1013Q419 1063 464 1082T575 1102Q612 1102 648 1092V927Q614 937 552 937Q440 937 381 841T322 564Z" />
<glyph unicode="s" horiz-adv-x="1024" d="M950 299Q950 146 835 63T511 -20Q309 -20 200 46T57 254L216 285Q239 198 311 158T511 117Q648 117 711 159T775 285Q775 349 731 389T589 455Q473 486 405 506T299 540T240 568Q174 606 137 661T100 796Q100 944 205
1021T513 1099Q692 1099 797 1036T931 834L769 814Q754 886 689 924T513 963Q391 963 333 926T275 814Q275 759 308 724T434 665Q559 635 672 600T834 529Q891 488 920 433T950 299Z" />
<glyph unicode="t" horiz-adv-x="569" d="M554 8Q466 -16 372 -16Q264 -16 210 45T156 229V951H31V1082H163L216 1324H336V1082H536V951H336V268Q336 190 361 159T450 127Q484 127 554 141V8Z" />
<glyph unicode="u" horiz-adv-x="1139" d="M822 185Q760 73 679 27T476 -20Q298 -20 216 68T133 361V1082H314V396Q314 234 364 177T537 119Q667 119 742 208T817 455V1082H997V231Q997 137 998 79T1003 0H833Q832 5 830 47T825 185H822Z" />
<glyph unicode="v" horiz-adv-x="1024" d="M1017 1082L613 0H400L7 1082H199L437 378Q444 358 461 299T506 141Q519 180 531 222T556 305T580 376L826 1082H1017Z" />
<glyph unicode="w" horiz-adv-x="1479" d="M704 765L508 0H300L-3 1082H175L361 333Q369 301 380 252T401 149Q412 196 423 243T447 336L644 1082H837L1026 339Q1038 292 1049 244T1072 149Q1083 197 1094 249T1116 342L1308 1082H1484L1174 0H965L776 765Q766
807 758 849T740 934Q736 912 726 860T704 765Z" />
<glyph unicode="x" horiz-adv-x="1024" d="M510 444L217 0H23L408 556L41 1082H240L510 661L778 1082H979L612 558L1002 0H801L510 444Z" />
<glyph unicode="y" horiz-adv-x="1024" d="M191 -425Q119 -425 67 -414V-279Q105 -285 151 -285Q235 -285 306 -223T434 5L5 1082H197L425 484Q450 420 478 339T523 196Q548 267 573 337T623 477L830 1082H1020L604 0Q570 -86 539 -150T479 -257Q421 -342 351
-383T191 -425Z" />
<glyph unicode="z" horiz-adv-x="1024" d="M922 139V0H83V137L688 943H117V1082H901V945L295 139H922Z" />
<glyph unicode="{" horiz-adv-x="684" d="M513 -425Q386 -425 318 -348T249 -132V229Q249 346 197 403T34 466V593Q143 597 196 654T249 829V1191Q249 1332 315 1408T513 1484H648V1355H585Q494 1355 456 1302T417 1140V784Q417 690 364 622T223 532V530Q312 509
364 441T417 276V-81Q417 -187 455 -241T585 -296H648V-425H513Z" />
<glyph unicode="|" horiz-adv-x="532" d="M349 1484V-434H183V1484H349Z" />
<glyph unicode="}" horiz-adv-x="684" d="M34 -296H94Q185 -296 224 -242T264 -81V276Q264 374 316 442T457 530V532Q371 552 318 619T264 784V1140Q264 1248 225 1301T94 1355H34V1484H166Q297 1484 363 1408T430 1191V829Q430 713 483 655T647 593V466Q535 462
483 404T430 229V-132Q430 -270 362 -347T166 -425H34V-296Z" />
<glyph unicode="~" horiz-adv-x="1196" d="M844 553Q775 553 703 575T557 623Q428 668 340 668Q273 668 215 648T92 580V723Q203 807 355 807Q409 807 471 794Q503 787 551 773T664 735Q695 723 755 707T860 690Q989 690 1104 782V633Q1046 591 988 572T844 553Z" />
<glyph unicode="&#xa0;" horiz-adv-x="569" />
<glyph unicode="&#xa1;" horiz-adv-x="682" d="M440 1082V881H246V1082H440ZM242 -327L266 685H414L438 -327H242Z" />
<glyph unicode="&#xa2;" horiz-adv-x="1139" d="M596 277Q692 277 756 329T836 489L1018 477Q999 333 904 242T662 137V-31H538V137Q339 155 237 297T135 697Q135 950 237 1093T538 1254V1409H662V1254Q805 1239 895 1156T1012 934L827 920Q813 1010 756 1063T594
1116Q451 1116 387 1021T323 701Q323 485 391 381T596 277Z" />
<glyph unicode="&#xa3;" horiz-adv-x="1139" d="M1104 311Q1087 161 999 81T767 0H69V154Q158 200 201 280T244 481V625H58V754H244V1034Q244 1229 347 1329T646 1430Q793 1430 893 1370T1027 1200L853 1143Q832 1207 777 1244T650 1282Q536 1282 480 1225T424
1042V754H832V625H424V499Q424 380 378 287T255 153H738Q825 153 876 197T941 329L1104 311Z" />
<glyph unicode="&#xa4;" horiz-adv-x="1139" d="M137 684Q137 822 215 936L115 1036L219 1139L318 1038Q431 1120 572 1120Q708 1120 823 1040L920 1137L1024 1032L928 936Q1008 818 1008 684Q1008 545 926 432L1026 332L924 227L823 328Q709 250 572 250Q430
250 320 330L215 225L113 330L215 432Q137 546 137 684ZM291 686Q291 608 329 545T432 444T572 406Q648 406 711 443T813 544T852 686Q852 764 814 828T712 929T572 967Q496 967 433 930T330 829T291 686Z" />
<glyph unicode="&#xa5;" horiz-adv-x="1139" d="M658 303V0H480V303H99V430H480L482 584H99V709H419L-2 1409H197L568 762L943 1409H1142L720 709H1041V584H658V430H1041V303H658Z" />
<glyph unicode="&#xa6;" horiz-adv-x="532" d="M349 1484V706H183V1484H349ZM349 345V-434H183V345H349Z" />
<glyph unicode="&#xa7;" horiz-adv-x="1139" d="M588 1484Q761 1484 867 1418T1001 1224L840 1204Q827 1279 764 1316T588 1354Q463 1354 399 1315T334 1204Q334 1156 364 1121T450 1060Q507 1034 635 1003Q778 969 860 927Q938 885 981 826T1024 686Q1024 587
965 512T805 413Q917 365 967 301T1018 145Q1018 -3 903 -87T577 -172Q368 -172 259 -106T115 100L276 131Q296 41 364 0T577 -41Q713 -41 785 3T858 129Q858 186 826 224T731 292Q670 321 518 358Q324 403 239 481T153 671Q153 760 214 834T381 938Q285 970 230
1037T174 1190Q174 1329 279 1406T588 1484ZM866 663Q866 735 797 787Q727 840 551 880Q442 874 378 821T313 684Q313 635 343 599T428 535Q484 508 612 475Q731 477 798 527T866 663Z" />
<glyph unicode="&#xa8;" horiz-adv-x="682" d="M602 1403V1219H439V1403H602ZM210 1403V1219H45V1403H210Z" />
<glyph unicode="&#xa9;" horiz-adv-x="1509" d="M1477 707Q1477 514 1381 346Q1284 177 1116 81T754 -16Q558 -16 388 85Q219 186 125 352T31 707Q31 901 128 1068Q225 1236 393 1333T754 1430Q948 1430 1117 1333Q1285 1236 1381 1069T1477 707ZM1385 707Q1385
876 1301 1021Q1217 1165 1071 1250T754 1335Q586 1335 440 1251Q294 1166 210 1020T126 707Q126 537 211 392Q295 246 440 162T754 78Q923 78 1070 162Q1217 246 1301 392T1385 707ZM498 709Q498 554 569 469T765 383Q923 383 998 539L1113 504Q1051 383 967 331T765
279Q577 279 473 392T369 709Q369 912 469 1022T758 1133Q1002 1133 1098 924L984 891Q952 960 894 994T760 1028Q633 1028 566 948T498 709Z" />
<glyph unicode="&#xaa;" horiz-adv-x="758" d="M260 651Q152 651 89 709T26 870Q26 1107 338 1112L516 1116V1176Q516 1257 481 1294T365 1331Q298 1331 258 1302T208 1196L59 1206Q75 1312 154 1372T363 1432Q508 1432 583 1370T659 1182V874Q659 816 673 791T722
766Q732 766 742 768T765 774V670Q717 657 682 657Q609 657 569 695T524 798H520Q447 651 260 651ZM299 762Q389 762 452 821T516 959V1024L378 1020Q260 1014 218 981T176 883Q176 762 299 762Z" />
<glyph unicode="&#xab;" horiz-adv-x="1139" d="M1056 170V141H886L548 506V569L886 940H1054V909L716 537L1056 170ZM588 170V141H419L83 506V569L419 940H586V909L251 537L588 170Z" />
<glyph unicode="&#xac;" horiz-adv-x="1196" d="M1095 754V180H950V608H100V754H1095Z" />
<glyph unicode="&#xad;" horiz-adv-x="682" d="M591 624V464H91V624H591Z" />
<glyph unicode="&#xae;" horiz-adv-x="1509" d="M1477 707Q1477 514 1381 346Q1284 177 1116 81T754 -16Q558 -16 388 85Q219 186 125 352T31 707Q31 901 128 1068Q225 1236 393 1333T754 1430Q948 1430 1117 1333Q1285 1236 1381 1069T1477 707ZM1385 707Q1385
876 1301 1021Q1217 1165 1071 1250T754 1335Q586 1335 440 1251Q294 1166 210 1020T126 707Q126 537 211 392Q295 246 440 162T754 78Q923 78 1070 162Q1217 246 1301 392T1385 707ZM595 625V289H468V1120H775Q917 1120 992 1057T1068 883Q1068 781 1016 720T879
639L1100 289H955L756 625H595ZM941 881Q941 950 894 986T765 1022H595V721H777Q857 721 899 763T941 881Z" />
<glyph unicode="&#xaf;" horiz-adv-x="1131" d="M1148 1546V1452H-17V1546H1148Z" />
<glyph unicode="&#xb0;" horiz-adv-x="819" d="M696 1145Q696 1066 657 1001T553 898T409 860Q331 860 266 899T161 1002T122 1145Q122 1223 160 1288T264 1391T409 1430Q489 1430 554 1392T657 1290T696 1145ZM587 1145Q587 1221 536 1273T409 1325Q334 1325
283 1272T231 1145Q231 1071 283 1018T409 965Q483 965 535 1017T587 1145Z" />
<glyph unicode="&#xb1;" horiz-adv-x="1124" d="M636 680V285H489V680H65V825H489V1219H636V825H1060V680H636ZM1060 145V0H65V145H1060Z" />
<glyph unicode="&#xb2;" horiz-adv-x="682" d="M643 676V563H43L41 666Q72 735 136 800T308 940Q405 1008 449 1064T493 1178Q493 1240 458 1277T348 1315Q280 1315 236 1279T184 1174L51 1182Q64 1289 144 1355T354 1421Q481 1421 555 1360T630 1188Q630 1041
442 903Q381 858 338 824T270 767Q218 719 200 676H643Z" />
<glyph unicode="&#xb3;" horiz-adv-x="682" d="M642 795Q642 679 565 615T345 551Q202 551 123 608T27 778L163 791Q181 655 345 655Q505 655 505 803Q505 940 316 940H255V1049H312Q392 1049 438 1085T484 1186Q484 1246 447 1280T339 1315Q271 1315 229 1280T181
1180L46 1192Q59 1301 137 1361T343 1421Q473 1421 547 1362T621 1204Q621 1129 578 1074T445 999V997Q536 988 589 936T642 795Z" />
<glyph unicode="&#xb4;" horiz-adv-x="682" d="M496 1479L166 1201H72V1221L289 1508H496V1479Z" />
<glyph unicode="&#xb5;" horiz-adv-x="1180" d="M140 -425V1082H321V396Q321 258 374 189T547 119Q675 119 748 206T821 455V1082H1001V266Q1001 190 1019 156T1079 121Q1103 121 1133 129V0Q1101 -10 1073 -15T1020 -20Q929 -20 882 27T829 174H826Q773 77 699
29T527 -20Q460 -20 406 0T320 59V-425H140Z" />
<glyph unicode="&#xb6;" horiz-adv-x="1100" d="M555 1307V-264H442V694Q274 694 177 786T80 1049Q80 1218 178 1313T450 1409H1013V1307H884V-264H772V1307H555Z" />
<glyph unicode="&#xb7;" horiz-adv-x="682" d="M438 666V446H243V666H438Z" />
<glyph unicode="&#xb8;" horiz-adv-x="682" d="M483 -253Q483 -344 415 -389T209 -434Q148 -434 119 -430V-332Q169 -338 205 -338Q352 -338 352 -257Q352 -219 319 -200T219 -180Q197 -180 183 -180T162 -182L227 0H334L295 -100Q389 -103 436 -143T483 -253Z" />
<glyph unicode="&#xb9;" horiz-adv-x="682" d="M637 670V563H80V670H291V1290L89 1152V1272L299 1409H422V670H637Z" />
<glyph unicode="&#xba;" horiz-adv-x="748" d="M723 1042Q723 854 635 753T372 651Q204 651 116 751T27 1042Q27 1231 116 1331T376 1432Q549 1432 636 1335T723 1042ZM574 1042Q574 1196 529 1261T379 1327Q271 1327 225 1260T179 1042Q179 897 224 827T371 756Q482
756 528 825T574 1042Z" />
<glyph unicode="&#xbb;" horiz-adv-x="1139" d="M718 141H550V170L888 537L552 909V940H718L1056 569V506L718 141ZM253 141H83V170L421 537L85 909V940H253L588 569V506L253 141Z" />
<glyph unicode="&#xbc;" horiz-adv-x="1708" d="M869 670V563H312V670H523V1290L321 1152V1272L531 1409H654V670H869ZM1371 1409L493 0H345L1226 1409H1371ZM1503 180V2H1372V180H966V291L1352 848H1503V293H1614V180H1503ZM1374 715Q1364 695 1344 661T1292
580L1093 293H1372V582Q1372 615 1372 648T1374 715Z" />
<glyph unicode="&#xbd;" horiz-adv-x="1708" d="M869 670V563H312V670H523V1290L321 1152V1272L531 1409H654V670H869ZM1371 1409L493 0H345L1226 1409H1371ZM1653 115V2H1053L1051 105Q1082 174 1146 239T1318 379Q1415 447 1459 503T1503 617Q1503 679 1468
716T1358 754Q1290 754 1246 718T1194 613L1061 621Q1074 728 1154 794T1364 860Q1491 860 1565 799T1640 627Q1640 480 1452 342Q1391 297 1348 263T1280 206Q1228 158 1210 115H1653Z" />
<glyph unicode="&#xbe;" horiz-adv-x="1708" d="M1391 1409L513 0H365L1246 1409H1391ZM1503 180V2H1372V180H966V291L1352 848H1503V293H1614V180H1503ZM1374 715Q1364 695 1344 661T1292 580L1093 293H1372V582Q1372 615 1372 648T1374 715ZM688 795Q688 679
611 615T391 551Q248 551 169 608T73 778L209 791Q227 655 391 655Q551 655 551 803Q551 940 362 940H301V1049H358Q438 1049 484 1085T530 1186Q530 1246 493 1280T385 1315Q317 1315 275 1280T227 1180L92 1192Q105 1301 183 1361T389 1421Q519 1421 593 1362T667
1204Q667 1129 624 1074T491 999V997Q582 988 635 936T688 795Z" />
<glyph unicode="&#xbf;" horiz-adv-x="1251" d="M756 1082V881H561V1082H756ZM131 50Q131 163 181 243T350 411L431 470Q572 572 573 705H748Q746 613 713 551T631 444T527 361Q470 320 422 280T343 188T313 58Q313 -56 390 -122T608 -188Q748 -188 830 -118T926
74L1110 62Q1084 -136 954 -242T610 -348Q387 -348 259 -243T131 50Z" />
<glyph unicode="&#xc0;" horiz-adv-x="1366" d="M364 412L202 0H4L579 1409H796L1362 0H1167L1006 412H364ZM685 1265Q668 1209 645 1141T601 1020L422 561H949L768 1026Q754 1061 731 1125T685 1265ZM864 1550V1530H750L440 1747V1776H647L864 1550Z" />
<glyph unicode="&#xc1;" horiz-adv-x="1366" d="M364 412L202 0H4L579 1409H796L1362 0H1167L1006 412H364ZM685 1265Q668 1209 645 1141T601 1020L422 561H949L768 1026Q754 1061 731 1125T685 1265ZM971 1747L661 1530H547V1550L764 1776H971V1747Z" />
<glyph unicode="&#xc2;" horiz-adv-x="1366" d="M364 412L202 0H4L579 1409H796L1362 0H1167L1006 412H364ZM685 1265Q668 1209 645 1141T601 1020L422 561H949L768 1026Q754 1061 731 1125T685 1265ZM352 1530V1550L586 1790H790L1014 1550V1530H909L690 1669H688L456
1530H352Z" />
<glyph unicode="&#xc3;" horiz-adv-x="1366" d="M364 412L202 0H4L579 1409H796L1362 0H1167L1006 412H364ZM685 1265Q668 1209 645 1141T601 1020L422 561H949L768 1026Q754 1061 731 1125T685 1265ZM842 1530Q804 1530 765 1547T688 1585Q647 1608 609 1628T536
1649Q481 1649 454 1618T418 1530H327Q343 1685 396 1741T530 1798Q573 1798 616 1778T700 1734Q737 1713 771 1696T835 1679Q885 1679 914 1709T952 1798H1044Q1027 1650 977 1590T842 1530Z" />
<glyph unicode="&#xc4;" horiz-adv-x="1366" d="M364 412L202 0H4L579 1409H796L1362 0H1167L1006 412H364ZM685 1265Q668 1209 645 1141T601 1020L422 561H949L768 1026Q754 1061 731 1125T685 1265ZM966 1714V1530H803V1714H966ZM574 1714V1530H409V1714H574Z" />
<glyph unicode="&#xc5;" horiz-adv-x="1366" d="M364 412L202 0H4L579 1409H796L1362 0H1167L1006 412H364ZM685 1265Q668 1209 645 1141T601 1020L422 561H949L768 1026Q754 1061 731 1125T685 1265ZM928 1546Q928 1480 895 1425T808 1337T686 1304Q620 1304
565 1337T477 1425T444 1546Q444 1614 477 1668T565 1755T686 1787Q752 1787 807 1755T895 1668T928 1546ZM820 1546Q820 1602 781 1641T686 1680Q629 1680 590 1641T551 1546Q551 1491 589 1450T686 1409Q744 1409 782 1449T820 1546Z" />
<glyph unicode="&#xc6;" horiz-adv-x="2048" d="M421 412L223 0H24L710 1409H1919V1253H1160V801H1859V647H1160V156H1960V0H969V412H421ZM491 561H969V1262H818L491 561Z" />
<glyph unicode="&#xc7;" horiz-adv-x="1479" d="M800 137Q1096 137 1245 430L1401 352Q1314 170 1157 75T791 -20Q577 -20 423 69T187 322T104 711Q104 936 186 1097T422 1344T790 1430Q1015 1430 1166 1342T1388 1081L1207 1021Q1158 1144 1050 1209T792 1274Q558
1274 428 1124T298 711Q298 539 359 410T533 209T800 137ZM993 -253Q993 -344 925 -389T719 -434Q658 -434 629 -430V-332Q679 -338 715 -338Q862 -338 862 -257Q862 -219 829 -200T729 -180Q707 -180 693 -180T672 -182L737 0H844L805 -100Q899 -103 946 -143T993
-253Z" />
<glyph unicode="&#xc8;" horiz-adv-x="1366" d="M1278 156V0H168V1409H1237V1253H359V801H1177V647H359V156H1278ZM849 1550V1530H735L425 1747V1776H632L849 1550Z" />
<glyph unicode="&#xc9;" horiz-adv-x="1366" d="M1278 156V0H168V1409H1237V1253H359V801H1177V647H359V156H1278ZM975 1747L665 1530H551V1550L768 1776H975V1747Z" />
<glyph unicode="&#xca;" horiz-adv-x="1366" d="M1278 156V0H168V1409H1237V1253H359V801H1177V647H359V156H1278ZM375 1530V1550L609 1790H813L1037 1550V1530H932L713 1669H711L479 1530H375Z" />
<glyph unicode="&#xcb;" horiz-adv-x="1366" d="M1278 156V0H168V1409H1237V1253H359V801H1177V647H359V156H1278ZM979 1714V1530H816V1714H979ZM587 1714V1530H422V1714H587Z" />
<glyph unicode="&#xcc;" horiz-adv-x="569" d="M380 1409V0H189V1409H380ZM689 1550V1530H575L265 1747V1776H472L689 1550Z" />
<glyph unicode="&#xcd;" horiz-adv-x="569" d="M380 1409V0H189V1409H380ZM566 1747L256 1530H142V1550L359 1776H566V1747Z" />
<glyph unicode="&#xce;" horiz-adv-x="569" d="M380 1409V0H189V1409H380ZM210 1530V1550L444 1790H648L872 1550V1530H767L548 1669H546L314 1530H210Z" />
<glyph unicode="&#xcf;" horiz-adv-x="569" d="M380 1409V0H189V1409H380ZM820 1714V1530H657V1714H820ZM428 1714V1530H263V1714H428Z" />
<glyph unicode="&#xd0;" horiz-adv-x="1479" d="M1381 719Q1381 495 1295 334T1054 87T695 0H168V647H14V801H168V1409H634Q992 1409 1186 1230T1381 719ZM1189 719Q1189 981 1046 1118T630 1256H359V801H765V647H359V153H673Q832 153 948 222T1126 418T1189 719Z" />
<glyph unicode="&#xd1;" horiz-adv-x="1479" d="M338 936V0H168V1409H390L1152 201Q1140 398 1140 485V1409H1312V0H1082L328 1200Q330 1134 334 1068T338 936ZM909 1530Q871 1530 832 1547T755 1585Q714 1608 676 1628T603 1649Q548 1649 521 1618T485 1530H394Q410
1685 463 1741T597 1798Q640 1798 683 1778T767 1734Q804 1713 838 1696T902 1679Q952 1679 981 1709T1019 1798H1111Q1094 1650 1044 1590T909 1530Z" />
<glyph unicode="&#xd2;" horiz-adv-x="1593" d="M1495 711Q1495 485 1410 321T1167 69T795 -20Q579 -20 423 68T182 320T97 711Q97 937 180 1097T420 1344T797 1430Q1013 1430 1169 1345T1410 1100T1495 711ZM1300 711Q1300 974 1169 1124T797 1274Q555 1274 423
1126T291 711Q291 535 351 406T524 206T795 135Q1039 135 1169 285T1300 711ZM968 1550V1530H854L544 1747V1776H751L968 1550Z" />
<glyph unicode="&#xd3;" horiz-adv-x="1593" d="M1495 711Q1495 485 1410 321T1167 69T795 -20Q579 -20 423 68T182 320T97 711Q97 937 180 1097T420 1344T797 1430Q1013 1430 1169 1345T1410 1100T1495 711ZM1300 711Q1300 974 1169 1124T797 1274Q555 1274 423
1126T291 711Q291 535 351 406T524 206T795 135Q1039 135 1169 285T1300 711ZM1045 1747L735 1530H621V1550L838 1776H1045V1747Z" />
<glyph unicode="&#xd4;" horiz-adv-x="1593" d="M1495 711Q1495 485 1410 321T1167 69T795 -20Q579 -20 423 68T182 320T97 711Q97 937 180 1097T420 1344T797 1430Q1013 1430 1169 1345T1410 1100T1495 711ZM1300 711Q1300 974 1169 1124T797 1274Q555 1274 423
1126T291 711Q291 535 351 406T524 206T795 135Q1039 135 1169 285T1300 711ZM469 1530V1550L703 1790H907L1131 1550V1530H1026L807 1669H805L573 1530H469Z" />
<glyph unicode="&#xd5;" horiz-adv-x="1593" d="M1495 711Q1495 485 1410 321T1167 69T795 -20Q579 -20 423 68T182 320T97 711Q97 937 180 1097T420 1344T797 1430Q1013 1430 1169 1345T1410 1100T1495 711ZM1300 711Q1300 974 1169 1124T797 1274Q555 1274 423
1126T291 711Q291 535 351 406T524 206T795 135Q1039 135 1169 285T1300 711ZM941 1530Q903 1530 864 1547T787 1585Q746 1608 708 1628T635 1649Q580 1649 553 1618T517 1530H426Q442 1685 495 1741T629 1798Q672 1798 715 1778T799 1734Q836 1713 870 1696T934
1679Q984 1679 1013 1709T1051 1798H1143Q1126 1650 1076 1590T941 1530Z" />
<glyph unicode="&#xd6;" horiz-adv-x="1593" d="M1495 711Q1495 485 1410 321T1167 69T795 -20Q579 -20 423 68T182 320T97 711Q97 937 180 1097T420 1344T797 1430Q1013 1430 1169 1345T1410 1100T1495 711ZM1300 711Q1300 974 1169 1124T797 1274Q555 1274 423
1126T291 711Q291 535 351 406T524 206T795 135Q1039 135 1169 285T1300 711ZM1073 1714V1530H910V1714H1073ZM681 1714V1530H516V1714H681Z" />
<glyph unicode="&#xd7;" horiz-adv-x="1196" d="M600 580L244 225L142 330L496 684L144 1036L248 1139L598 786L948 1137L1053 1032L703 684L1055 332L953 227L600 580Z" />
<glyph unicode="&#xd8;" horiz-adv-x="1593" d="M1495 711Q1495 491 1410 327T1167 71T795 -20Q548 -20 381 92L261 -53H71L271 188Q97 380 97 711Q97 937 180 1097T420 1344T797 1430Q1044 1430 1211 1320L1332 1466H1524L1323 1224Q1409 1129 1452 1001T1495
711ZM291 711Q291 482 392 333L1099 1186Q975 1274 797 1274Q555 1274 423 1126T291 711ZM1300 711Q1300 934 1202 1079L493 226Q614 135 795 135Q1039 135 1169 285T1300 711Z" />
<glyph unicode="&#xd9;" horiz-adv-x="1479" d="M731 -20Q558 -20 429 44T229 227T158 512V1409H349V528Q349 335 447 235T730 135Q920 135 1025 238T1131 541V1409H1321V530Q1321 359 1249 236T1044 47T731 -20ZM927 1550V1530H813L503 1747V1776H710L927 1550Z" />
<glyph unicode="&#xda;" horiz-adv-x="1479" d="M731 -20Q558 -20 429 44T229 227T158 512V1409H349V528Q349 335 447 235T730 135Q920 135 1025 238T1131 541V1409H1321V530Q1321 359 1249 236T1044 47T731 -20ZM989 1747L679 1530H565V1550L782 1776H989V1747Z" />
<glyph unicode="&#xdb;" horiz-adv-x="1479" d="M731 -20Q558 -20 429 44T229 227T158 512V1409H349V528Q349 335 447 235T730 135Q920 135 1025 238T1131 541V1409H1321V530Q1321 359 1249 236T1044 47T731 -20ZM408 1530V1550L642 1790H846L1070 1550V1530H965L746
1669H744L512 1530H408Z" />
<glyph unicode="&#xdc;" horiz-adv-x="1479" d="M731 -20Q558 -20 429 44T229 227T158 512V1409H349V528Q349 335 447 235T730 135Q920 135 1025 238T1131 541V1409H1321V530Q1321 359 1249 236T1044 47T731 -20ZM1016 1714V1530H853V1714H1016ZM624 1714V1530H459V1714H624Z"
/>
<glyph unicode="&#xdd;" horiz-adv-x="1366" d="M777 584V0H587V584L45 1409H255L684 738L1111 1409H1321L777 584ZM960 1747L650 1530H536V1550L753 1776H960V1747Z" />
<glyph unicode="&#xde;" horiz-adv-x="1366" d="M1258 735Q1258 608 1200 509T1032 354T773 297H359V0H168V1409H359V1157H761Q1000 1157 1129 1046T1258 735ZM1066 731Q1066 865 984 939T738 1014H359V438H746Q899 438 982 515T1066 731Z" />
<glyph unicode="&#xdf;" horiz-adv-x="1251" d="M1167 295Q1167 145 1073 63T809 -20Q637 -20 526 29L524 193Q576 164 656 144T805 124Q897 124 946 167T995 289Q995 353 953 404T813 513Q721 567 676 633T630 785Q630 846 658 896T741 991Q799 1039 825 1081T852
1173Q852 1250 785 1296T609 1343Q461 1343 392 1263T322 1021V0H142V1027Q142 1254 259 1369T609 1484Q799 1484 911 1404T1024 1187Q1024 1116 996 1055T911 941Q857 892 834 867T804 826T798 791Q798 756 824 726T893 666T983 605Q1167 481 1167 295Z" />
<glyph unicode="&#xe0;" horiz-adv-x="1139" d="M414 -20Q251 -20 169 66T87 302Q87 470 197 560T554 656L797 660V719Q797 851 741 908T565 965Q444 965 389 924T323 793L135 810Q181 1102 569 1102Q773 1102 876 1009T979 738V272Q979 192 1000 152T1080 111Q1108
111 1139 118V6Q1105 -2 1070 -6T1000 -10Q900 -10 855 42T803 207H797Q728 83 637 32T414 -20ZM797 534L600 530Q474 529 408 504Q342 480 307 430T272 299Q272 211 319 163T455 115Q555 115 631 160Q708 205 752 283T797 445V534ZM718 1221V1201H624L294 1479V1508H501L718
1221Z" />
<glyph unicode="&#xe1;" horiz-adv-x="1139" d="M414 -20Q251 -20 169 66T87 302Q87 470 197 560T554 656L797 660V719Q797 851 741 908T565 965Q444 965 389 924T323 793L135 810Q181 1102 569 1102Q773 1102 876 1009T979 738V272Q979 192 1000 152T1080 111Q1108
111 1139 118V6Q1105 -2 1070 -6T1000 -10Q900 -10 855 42T803 207H797Q728 83 637 32T414 -20ZM797 534L600 530Q474 529 408 504Q342 480 307 430T272 299Q272 211 319 163T455 115Q555 115 631 160Q708 205 752 283T797 445V534ZM836 1479L506 1201H412V1221L629
1508H836V1479Z" />
<glyph unicode="&#xe2;" horiz-adv-x="1139" d="M414 -20Q251 -20 169 66T87 302Q87 470 197 560T554 656L797 660V719Q797 851 741 908T565 965Q444 965 389 924T323 793L135 810Q181 1102 569 1102Q773 1102 876 1009T979 738V272Q979 192 1000 152T1080 111Q1108
111 1139 118V6Q1105 -2 1070 -6T1000 -10Q900 -10 855 42T803 207H797Q728 83 637 32T414 -20ZM797 534L600 530Q474 529 408 504Q342 480 307 430T272 299Q272 211 319 163T455 115Q555 115 631 160Q708 205 752 283T797 445V534ZM219 1201V1221L453 1491H657L881
1221V1201H776L557 1370H555L323 1201H219Z" />
<glyph unicode="&#xe3;" horiz-adv-x="1139" d="M414 -20Q251 -20 169 66T87 302Q87 470 197 560T554 656L797 660V719Q797 851 741 908T565 965Q444 965 389 924T323 793L135 810Q181 1102 569 1102Q773 1102 876 1009T979 738V272Q979 192 1000 152T1080 111Q1108
111 1139 118V6Q1105 -2 1070 -6T1000 -10Q900 -10 855 42T803 207H797Q728 83 637 32T414 -20ZM797 534L600 530Q474 529 408 504Q342 480 307 430T272 299Q272 211 319 163T455 115Q555 115 631 160Q708 205 752 283T797 445V534ZM737 1201Q697 1201 657 1219T577
1260Q537 1283 500 1301T431 1320Q376 1320 349 1289T313 1201H222Q239 1354 291 1411T425 1469Q469 1469 512 1449T597 1404Q634 1383 667 1367T730 1350Q780 1350 809 1380T847 1469H939Q922 1321 872 1261T737 1201Z" />
<glyph unicode="&#xe4;" horiz-adv-x="1139" d="M414 -20Q251 -20 169 66T87 302Q87 470 197 560T554 656L797 660V719Q797 851 741 908T565 965Q444 965 389 924T323 793L135 810Q181 1102 569 1102Q773 1102 876 1009T979 738V272Q979 192 1000 152T1080 111Q1108
111 1139 118V6Q1105 -2 1070 -6T1000 -10Q900 -10 855 42T803 207H797Q728 83 637 32T414 -20ZM797 534L600 530Q474 529 408 504Q342 480 307 430T272 299Q272 211 319 163T455 115Q555 115 631 160Q708 205 752 283T797 445V534ZM837 1403V1219H674V1403H837ZM445
1403V1219H280V1403H445Z" />
<glyph unicode="&#xe5;" horiz-adv-x="1139" d="M414 -20Q251 -20 169 66T87 302Q87 470 197 560T554 656L797 660V719Q797 851 741 908T565 965Q444 965 389 924T323 793L135 810Q181 1102 569 1102Q773 1102 876 1009T979 738V272Q979 192 1000 152T1080 111Q1108
111 1139 118V6Q1105 -2 1070 -6T1000 -10Q900 -10 855 42T803 207H797Q728 83 637 32T414 -20ZM797 534L600 530Q474 529 408 504Q342 480 307 430T272 299Q272 211 319 163T455 115Q555 115 631 160Q708 205 752 283T797 445V534ZM799 1410Q799 1344 766 1289T679
1201T557 1168Q491 1168 436 1201T348 1289T315 1410Q315 1478 348 1532T436 1619T557 1651Q623 1651 678 1619T766 1532T799 1410ZM691 1410Q691 1466 652 1505T557 1544Q500 1544 461 1505T422 1410Q422 1355 460 1314T557 1273Q615 1273 653 1313T691 1410Z"
/>
<glyph unicode="&#xe6;" horiz-adv-x="1821" d="M1701 236Q1604 -20 1260 -20Q939 -20 837 237Q758 97 653 39T402 -20Q235 -20 151 66T66 302Q66 649 546 656L786 660V719Q786 854 731 909T554 965Q428 965 372 925T302 793L114 810Q137 956 248 1029T558 1102Q808
1102 907 963Q1025 1102 1253 1102Q1492 1102 1611 958T1730 527V503H968Q968 309 1044 212T1260 115Q1377 115 1447 162T1543 281L1701 236ZM1544 641Q1529 812 1457 890T1250 969Q1123 969 1050 884T970 641H1544ZM251 299Q251 212 301 164T444 115Q547 115 623
160Q700 204 743 281T786 445V534L591 530Q460 527 388 501Q318 474 285 424T251 299Z" />
<glyph unicode="&#xe7;" horiz-adv-x="1024" d="M553 -20Q326 -20 207 123T87 542Q87 815 207 958T551 1102Q717 1102 826 1016T964 779L779 765Q765 855 708 908T546 961Q403 961 339 866T275 546Q275 330 343 226T548 122Q644 122 708 174T788 334L970 322Q956
218 901 141T757 22T553 -20ZM751 -253Q751 -344 683 -389T477 -434Q416 -434 387 -430V-332Q437 -338 473 -338Q620 -338 620 -257Q620 -219 587 -200T487 -180Q465 -180 451 -180T430 -182L495 0H602L563 -100Q657 -103 704 -143T751 -253Z" />
<glyph unicode="&#xe8;" horiz-adv-x="1139" d="M276 503Q276 317 353 216T578 115Q695 115 765 162T861 281L1019 236Q922 -20 578 -20Q338 -20 213 123T87 548Q87 816 212 959T571 1102Q810 1102 929 958T1048 527V503H276ZM862 641Q847 812 775 890T568 969Q437
969 361 882T278 641H862ZM751 1221V1201H657L327 1479V1508H534L751 1221Z" />
<glyph unicode="&#xe9;" horiz-adv-x="1139" d="M276 503Q276 317 353 216T578 115Q695 115 765 162T861 281L1019 236Q922 -20 578 -20Q338 -20 213 123T87 548Q87 816 212 959T571 1102Q810 1102 929 958T1048 527V503H276ZM862 641Q847 812 775 890T568 969Q437
969 361 882T278 641H862ZM864 1479L534 1201H440V1221L657 1508H864V1479Z" />
<glyph unicode="&#xea;" horiz-adv-x="1139" d="M276 503Q276 317 353 216T578 115Q695 115 765 162T861 281L1019 236Q922 -20 578 -20Q338 -20 213 123T87 548Q87 816 212 959T571 1102Q810 1102 929 958T1048 527V503H276ZM862 641Q847 812 775 890T568 969Q437
969 361 882T278 641H862ZM246 1201V1221L480 1491H684L908 1221V1201H803L584 1370H582L350 1201H246Z" />
<glyph unicode="&#xeb;" horiz-adv-x="1139" d="M276 503Q276 317 353 216T578 115Q695 115 765 162T861 281L1019 236Q922 -20 578 -20Q338 -20 213 123T87 548Q87 816 212 959T571 1102Q810 1102 929 958T1048 527V503H276ZM862 641Q847 812 775 890T568 969Q437
969 361 882T278 641H862ZM850 1403V1219H687V1403H850ZM458 1403V1219H293V1403H458Z" />
<glyph unicode="&#xec;" horiz-adv-x="569" d="M374 1082V0H194V1082H374ZM690 1221V1201H596L266 1479V1508H473L690 1221Z" />
<glyph unicode="&#xed;" horiz-adv-x="569" d="M374 1082V0H194V1082H374ZM559 1479L229 1201H135V1221L352 1508H559V1479Z" />
<glyph unicode="&#xee;" horiz-adv-x="569" d="M374 1082V0H194V1082H374ZM212 1201V1221L446 1491H650L874 1221V1201H769L550 1370H548L316 1201H212Z" />
<glyph unicode="&#xef;" horiz-adv-x="569" d="M374 1082V0H194V1082H374ZM821 1403V1219H658V1403H821ZM429 1403V1219H264V1403H429Z" />
<glyph unicode="&#xf0;" horiz-adv-x="1139" d="M566 -20Q334 -20 210 109T86 481Q86 725 210 852T573 979Q709 979 804 920Q695 1137 570 1251L269 1118V1232L487 1326Q432 1370 372 1409T245 1484H454Q535 1447 624 1382L930 1514L929 1402L718 1310Q889 1154
976 951T1063 516Q1063 251 939 116T566 -20ZM874 481Q874 673 804 759T577 846Q420 846 348 759T275 481Q275 291 347 202T564 113Q725 113 799 200T874 481Z" />
<glyph unicode="&#xf1;" horiz-adv-x="1139" d="M326 627V0H146V851Q146 946 145 1003T140 1082H310Q312 1063 313 1034T316 970T318 897H321Q383 1009 464 1055T667 1102Q845 1102 927 1011T1010 721V0H829V686Q829 841 779 902T606 963Q476 963 401 874T326
627ZM737 1201Q697 1201 657 1219T577 1260Q537 1283 500 1301T431 1320Q376 1320 349 1289T313 1201H222Q239 1354 291 1411T425 1469Q469 1469 512 1449T597 1404Q634 1383 667 1367T730 1350Q780 1350 809 1380T847 1469H939Q922 1321 872 1261T737 1201Z" />
<glyph unicode="&#xf2;" horiz-adv-x="1139" d="M1053 542Q1053 258 928 119T565 -20Q328 -20 207 124T86 542Q86 822 207 962T571 1102Q819 1102 936 966T1053 542ZM864 542Q864 766 798 867T574 969Q416 969 346 866T275 542Q275 328 344 221T563 113Q725 113
794 217T864 542ZM753 1221V1201H659L329 1479V1508H536L753 1221Z" />
<glyph unicode="&#xf3;" horiz-adv-x="1139" d="M1053 542Q1053 258 928 119T565 -20Q328 -20 207 124T86 542Q86 822 207 962T571 1102Q819 1102 936 966T1053 542ZM864 542Q864 766 798 867T574 969Q416 969 346 866T275 542Q275 328 344 221T563 113Q725 113
794 217T864 542ZM855 1479L525 1201H431V1221L648 1508H855V1479Z" />
<glyph unicode="&#xf4;" horiz-adv-x="1139" d="M1053 542Q1053 258 928 119T565 -20Q328 -20 207 124T86 542Q86 822 207 962T571 1102Q819 1102 936 966T1053 542ZM864 542Q864 766 798 867T574 969Q416 969 346 866T275 542Q275 328 344 221T563 113Q725 113
794 217T864 542ZM241 1201V1221L475 1491H679L903 1221V1201H798L579 1370H577L345 1201H241Z" />
<glyph unicode="&#xf5;" horiz-adv-x="1139" d="M1053 542Q1053 258 928 119T565 -20Q328 -20 207 124T86 542Q86 822 207 962T571 1102Q819 1102 936 966T1053 542ZM864 542Q864 766 798 867T574 969Q416 969 346 866T275 542Q275 328 344 221T563 113Q725 113
794 217T864 542ZM739 1201Q699 1201 659 1219T579 1260Q539 1283 502 1301T433 1320Q378 1320 351 1289T315 1201H224Q241 1354 293 1411T427 1469Q471 1469 514 1449T599 1404Q636 1383 669 1367T732 1350Q782 1350 811 1380T849 1469H941Q924 1321 874 1261T739
1201Z" />
<glyph unicode="&#xf6;" horiz-adv-x="1139" d="M1053 542Q1053 258 928 119T565 -20Q328 -20 207 124T86 542Q86 822 207 962T571 1102Q819 1102 936 966T1053 542ZM864 542Q864 766 798 867T574 969Q416 969 346 866T275 542Q275 328 344 221T563 113Q725 113
794 217T864 542ZM852 1403V1219H689V1403H852ZM460 1403V1219H295V1403H460Z" />
<glyph unicode="&#xf7;" horiz-adv-x="1124" d="M646 1141V958H478V1141H646ZM1060 754V608H65V754H1060ZM646 406V223H478V406H646Z" />
<glyph unicode="&#xf8;" horiz-adv-x="1251" d="M1112 542Q1112 258 987 119T624 -20Q430 -20 311 78L211 -38H44L228 176Q145 315 145 542Q145 822 266 962T630 1102Q831 1102 946 1011L1037 1116H1204L1031 915Q1112 782 1112 542ZM334 542Q334 413 358 327L840
888Q773 969 633 969Q475 969 405 866T334 542ZM923 542Q923 669 900 763L417 201Q484 113 622 113Q784 113 853 217T923 542Z" />
<glyph unicode="&#xf9;" horiz-adv-x="1139" d="M828 185Q766 73 685 27T482 -20Q304 -20 222 68T139 361V1082H320V396Q320 234 370 177T543 119Q673 119 748 208T823 455V1082H1003V231Q1003 137 1004 79T1009 0H839Q838 5 836 47T831 185H828ZM766 1221V1201H672L342
1479V1508H549L766 1221Z" />
<glyph unicode="&#xfa;" horiz-adv-x="1139" d="M828 185Q766 73 685 27T482 -20Q304 -20 222 68T139 361V1082H320V396Q320 234 370 177T543 119Q673 119 748 208T823 455V1082H1003V231Q1003 137 1004 79T1009 0H839Q838 5 836 47T831 185H828ZM839 1479L509
1201H415V1221L632 1508H839V1479Z" />
<glyph unicode="&#xfb;" horiz-adv-x="1139" d="M828 185Q766 73 685 27T482 -20Q304 -20 222 68T139 361V1082H320V396Q320 234 370 177T543 119Q673 119 748 208T823 455V1082H1003V231Q1003 137 1004 79T1009 0H839Q838 5 836 47T831 185H828ZM240 1201V1221L474
1491H678L902 1221V1201H797L578 1370H576L344 1201H240Z" />
<glyph unicode="&#xfc;" horiz-adv-x="1139" d="M828 185Q766 73 685 27T482 -20Q304 -20 222 68T139 361V1082H320V396Q320 234 370 177T543 119Q673 119 748 208T823 455V1082H1003V231Q1003 137 1004 79T1009 0H839Q838 5 836 47T831 185H828ZM839 1403V1219H676V1403H839ZM447
1403V1219H282V1403H447Z" />
<glyph unicode="&#xfd;" horiz-adv-x="1024" d="M191 -425Q119 -425 67 -414V-279Q105 -285 151 -285Q235 -285 306 -223T434 5L5 1082H197L425 484Q450 420 478 339T523 196Q548 267 573 337T623 477L830 1082H1020L604 0Q570 -86 539 -150T479 -257Q421 -342
351 -383T191 -425ZM779 1479L449 1201H355V1221L572 1508H779V1479Z" />
<glyph unicode="&#xfe;" horiz-adv-x="1139" d="M318 -2V-425H138V1484H318V1061Q318 1029 317 991T314 908H320Q368 1008 447 1054T655 1101Q855 1101 954 967T1053 546Q1053 263 954 122T655 -20Q405 -20 319 168H314Q318 161 318 -2ZM864 542Q864 768 803 865T609
962Q458 962 388 860T318 528Q318 315 386 214T607 113Q741 113 802 211T864 542Z" />
<glyph unicode="&#xff;" horiz-adv-x="1024" d="M191 -425Q119 -425 67 -414V-279Q105 -285 151 -285Q235 -285 306 -223T434 5L5 1082H197L425 484Q450 420 478 339T523 196Q548 267 573 337T623 477L830 1082H1020L604 0Q570 -86 539 -150T479 -257Q421 -342
351 -383T191 -425ZM789 1403V1219H626V1403H789ZM397 1403V1219H232V1403H397Z" />
<glyph unicode="&#x2013;" horiz-adv-x="1139" d="M1138 588V451H0V588H1138Z" />
<glyph unicode="&#x2014;" horiz-adv-x="2048" d="M2048 588V451H0V588H2048Z" />
<glyph unicode="&#x2018;" horiz-adv-x="455" d="M322 1147V952H127V1098Q127 1195 145 1268T207 1409H328Q281 1341 257 1275T233 1147H322Z" />
<glyph unicode="&#x2019;" horiz-adv-x="455" d="M328 1264Q328 1159 309 1088T250 952H127Q221 1088 221 1212H133V1409H328V1264Z" />
<glyph unicode="&#x201a;" horiz-adv-x="455" d="M328 51Q328 -55 309 -126T250 -262H127Q174 -194 197 -129T221 0H133V195H328V51Z" />
<glyph unicode="&#x201c;" horiz-adv-x="682" d="M601 1147V952H407V1098Q407 1193 425 1267T485 1409H607Q560 1341 537 1276T513 1147H601ZM270 1147V952H75V1098Q75 1195 93 1268T155 1409H276Q229 1341 205 1275T181 1147H270Z" />
<glyph unicode="&#x201d;" horiz-adv-x="682" d="M607 1264Q607 1171 590 1098T528 952H407Q501 1088 501 1214H413V1409H607V1264ZM276 1264Q276 1159 257 1088T198 952H75Q169 1088 169 1214H81V1409H276V1264Z" />
<glyph unicode="&#x201e;" horiz-adv-x="682" d="M607 51Q607 -44 590 -117T528 -262H407Q454 -194 477 -129T501 0H413V195H607V51ZM276 51Q276 -55 257 -126T198 -262H75Q122 -194 145 -129T169 0H81V195H276V51Z" />
<glyph unicode="&#x2022;" horiz-adv-x="717" d="M636 682Q636 607 599 543T498 440T355 401Q280 401 218 439T118 542T81 682Q81 759 118 821T218 919T355 956Q433 956 496 919T598 820T636 682Z" />
<glyph unicode="&#x2039;" horiz-adv-x="682" d="M593 170V141H424L88 506V569L424 940H591V909L256 537L593 170Z" />
<glyph unicode="&#x203a;" horiz-adv-x="682" d="M89 141V170L427 537L91 909V940H257L594 569V506L257 141H89Z" />
</font>
</defs>
</svg>
